H265 Vs Remux

And x265 is a free software library and application for encoding video streams into the H. Product - LG 4K Ultra-Blu-ray Player with HDR. Next Post :Mary Queen of Scots 2018 Repack UHD BluRay 2160p TrueHD HEVC REMUX-FraMeSToR Leave a comment Feel free to post your Creed 2 2018 UHD BluRay 2160p TrueHD HEVC REMUX-FraMeSToR torrent, subtitles, samples, free download, quality, NFO, direct link, free link, uploaded. 43GB Video Create Time: 2020-04-13 Files: 1 Total size: 2. 265, also known as High Efficiency Video Coding (HEVC), is the successor standard to H. A pro takové účely je 1280p dostačující. Más ventajas del H. 264 (x264) 3. It works on 32-bit and 64-bit Windows. 265+ takes a picture of stable environment ,uses it as background frame and focuses only on the moving objects. php?id=704486&hit=1 Wed, 29 Apr 2020 06:05. You can view blu ray with pleasure, on any convenient device. SUB Multi This avoids must of the bad scenarios. 2 and libav-tools. This video will teach you how to harness the ultimate power and potential of your meme machine, and replace Windows Media Player (LOL) or VLC with the best media player on Planet Earth. EaseFab LosslessCopy can directly extract the M2TS file which is the main title movie in the 4K Blu-ray without preserving other extras. Solution 2: Download and install H. It has better. For example, extracting two tracks, the chapters and the tags can be done with the following command: `mkvextract input. mkv tracks 0:video. 7/10 (Votes 503,184) PLOT: the Avengers assemble once more in order to reverse Thanos’ actions and restore balance to the universe. 264/MPEG-4 AVC 目前主流的高畫質壓縮格式,也是數位電視、MOD、Blu-ray 等指定的壓縮格式,. [4K HDR]Maleficent 2014 UHD 2160p BluRay REMUX H265 10Bit TrueHD Atmos 7. 4K Torrent Results: Florence and the Uffizi Gallery 3D/4K 1 hour(s) and 35 minutes - Movie - 2016 Praised by audience and critics, Florence and the Uffizi Gallery 3D/4K gained the first place of the Italian box office in the first two days of its theatrical release. 265/MPEG-H HEVC compression format, and is released under the terms of the GNU GPL. 1000 Media Foundation Enabled Hardware Categories [HKEY_LOCAL_MACHINE\Software\Microsoft\Windows Media Foundation\HardwareMFT]. Video Compression Testing: x264 vs x265 CRF in Handbrake 0. ENG 1080p H265 sub ita. MP4 or MKV), I have to use remux (not re-encode) that into a TS container again before I can play that on the TV (with hardware decoder, of course). 265+, that claims even greater bandwidth savings. 265 videos, so the ultimate solution to playing H. Walter Beckett hingegen das komplette Gegenteil. 1 H265-DEFLATE. Fast and excellent quality. m2ts also) but most prefer an MKV container. 265 to VLC Converter. This means that a video file encoded with HEVC. HDDVD Remux 1080p vs WEB-DL 1080p The Time Machine. File Name: Avengers: Endgame (2019) Language: English + Spanish. 1 H265-DEFLATE. Fruits Basket S1 Dual Audio 1080p HEVC H265 AAC Remux: 4. Avengers Endgame 2019 BluRay 1080p TrueHD Atmos 7. A Beautiful Day in the Neighborhood 4K 2019 Ultra HD 2160p. Step 1 Load the MKV files into UniConverter. 265/HEVC, VC-1, MPEG2. As for the HDR part, both use HDR (as you said) so your theather set-up must be able to handle it. Please read in details our refund policy. So, if you load your MKV video into Handbrake, and re-encode it with x264, the H. Películas H265. For NVENC, latency is tied to (B-Frames + 1) and Lookahead Frames, whichever is bigger. Download Alita Battle Angel 2019 2160p UHD BluRay REMUX HDR HEVC Atmos-EPSiLON mkv torrent for free, Downloads via Magnet Link or FREE Movies online to Watch in. 43GB Seeders: 14 Leechers: 2 The Predator Remux 2018. By default, an x265 (HEVC) 8 vs 10-bit comparison is selected, at 400kbps and an encoding preset speed of "Slow". 4k/蓝光原盘/remux/2160p/1080p/720p高清电影 ,深秋之葵下载站. Recently I had a reader contacting me about demuxing files. 265? What is your plan for 2017? - posted in General Discussion: Just curious on everyones plan moving forward with h. g H265 is ~300% more computationally expensive than H264. MGT - Max Games Tech 61,907 views. REMUX-FraMeSToR 4k电影信息 第536破解4K UHD 蓝光原盘破解版,含完整的 BDMV 文件夹以及数据,AACS 2. Add the MKV files to the program by using the Add button and then click Convert / Save. MP4 (MPEG-4 Video) is a multimedia container and a compression standard for video, audio and other data (such as subtitle, image, text and more), developed by the Moving Picture Experts Group (MPEG). Predator Trilogie 1987-2010 1080p Bluray Remux Multi AVC MPEG2 DTS. 265+ ENCODING TECHNOLOGY 3 1. 18GHz comparison. Frozen II 2019 2160p UHD BluRay REMUX HDR HEVC Atmos-EPSiLON. High Efficiency Video Coding ( HEVC ), also known as H. For example HBO shows. VP9 is an open, royalty-free video coding standard developed by Google. I'm not entirely sure whether this is just for video, audio and video combined. Rowling, dirigida. 265 is mainly on low bitrate videos but now that hardware decoding is becoming more common Im curious to see if others are making the switch. 111 1 vs 2. Implemented full hardware encoding for all GPU capable encoders (NVENC H264, NVENC H265). Download Movies in Dual Audio | Hollywood | Bollywood | South Indian | Hindi Dubbed HEVC 480p, 720p 1080p 2k 2160p 4K Ultra HD 2020 mlwbd. Aliens vs Predator 2 Requiem (2007) AC3 5. A clean, fast and accurate bittorrent search engine. NEW VERSION 2. Club 對所有留言的真實性、完整性及立場等,不負任何法律責任。. The player has so many advanced video playback functions, and can handle all kinds of different video materials. PAÍS: USA DIRECTOR: Justin Lin GUIÓN: Chris Morgan MÚSICA: Brian Tyler FOTOGRAFÍA: Stephen F. Convert your MP4 files to GIF image. Product - Sony 4K UHD Blu-ray Player - UBP-X700. No servers or special software to set up or configure. Which cake is better -- chocolate cake recipe or chocolate cake bought at the store down the street?. 265) delivers quality video equivalent to H. Charlie Brown Pack 1965-1992 2160p BluRay REMUX HEVC DTS-HD MA 5. Actually, as far as we know, Roku 3 supported media file formats are restricted to MKV (H. Vizipók Amazon H264 vs Amazon H265. Sony 4K UHD Blu-ray Player - UBP-X700. HEVC Versus H. nz, filefactory, crack. eng Sp33dy94-MIRCrew. 264 in several ways. Active 3 years, 5 months ago. 0 com suporte a codificação em H. Powerful scripting capabilities can make the player do almost anything. 264 intuitively, make best use of them and also show you why it's should be a wise choice to convert H264 to H265, I make detailed H264 vs H265 (Namely AVC vs HEVC) comparisons on the most important aspects: compression ratio, quality and file size. Batman vs Teenage Mutant Ninja Turtles 2019 2160p UHD BLURAY REMUX HDR HEVC MULTI VFi AC3 x265-EXTREME 2018 - BLURAY 4K H265 2160P 10BIT HDR MULTI (VF2) TRUEHD. Remux/mux elementary streams, EVO/VOB/MPG, MKV/MKA, MP4/MOV, TS, M2TS to TS to M2TS. Lower CPU usage: Share the load of video transcoding with GPU acceleration and lower the CPU usage to 40% avg. rar IDX+SUB. Subtitles though are "Iffy" so I can burn the ones that don't work properly with HANDBRAKE then it has no problems with a remux and also plays mkv / mp4 / avi just fine. Right-click to save these files on your PC, then play them with Windows Media Player after installing the x265 HEVC Upgrade. Ex-hitman John Wick comes out of retirement to John Wick 1 AC3 5. Indexing 10229865 live torrents. DTS HD-MA Top Gun 1986 1080p Blu ray Remux AVC DTS HD MA 6 1. 100 ( Version History) Our products are offered as ' try-before-you-buy '. DECODIFICADOR H265 Como indicação recomendo o conversor de código livre HandBrake, atualizado para a versão 0. Whereas macroblocks can span 4x4 to 16x16 block sizes. 81 GiB Batman vs Teenage Mutant Ninja Turtles 2019 BluRay 10Bit 1080p DD5 1 H265-d3g; Batman vs Teenage Mutant Ninja Turtles 2019 BRRip x264 AAC-SSN; Batman vs. Want to Get the Best 4K Blu-ray Ripper: Best MakeMKV Alternative? That’s pretty? MakeMKV undoubtedly offers one of the easiest ways to rip 4K Blu-ray disc, however user must play the 4K Blu-ray movies on the special media player, which can deal with MKV video format, this is also MKV fatal point: Only can output MKV single video format. During video conversation point 1. 저작권 문제로 티프리카 페쇄합니다. You can view blu ray with pleasure, on any convenient device. 265 con respecto al H. m2ts also) but most prefer an MKV container. 哥斯拉之龙战四海 ゴジラvsモスラ (1992) 又名: 哥斯拉大战摩斯拉,Gojira vs. If you proceed here you accept our purchase terms and VSO does not refund your money if you are not satisfied with our products. eng Sp33dy94-MIRCrew. Torrent search engine. Whereas macroblocks can span 4x4 to 16x16 block sizes. I tried some of the movflags , and forcing the timebase and timescale but couldn't get it to work with mp4 container. Reduced the latency for some encoders to be as low as 1 frame, if settings allow. Aliens vs Predator 2 Requiem (2007) AC3 5. 43GB Seeders: 14 Leechers: 2 The Predator Remux 2018. This is probably where it gains most compression. home 2020 s01 hdr 2160p web h265-ghosts. "쟤를 죽이고 사고로 위장하자. Avengers Endgame 2019 UHD BluRay Remux 2160p HEVC TrueHD 7. But sometimes you may come across Avidemux no sound issue after exporting the project, which is really annoying. This task can be made with SolveigMM Video Splitter in three simple steps. 찌질한 킥애스 '데이브'(애런 존슨)를 상대로 하이킥 연습이나 하면서 무료함을 달랜다. m2ts also) but most prefer an MKV container. Este mes se ponen a la venta en España los primeros reproductores y películas Blu-ray 4K Ultra HD. In this article, we will focus on the topic and make clear the association and difference between Blu-ray vs 4K, also provide some effective ways to enjoy Blu-ray and 4K content. Viewed 110k times 27. 43GB Seeders: 14 Leechers: 2 The Predator Remux 2018. Supported video codecs H. HD Film indir Turkiyenin Full HD Bluray icerigine Sahip Sitemizde 1080P Dual, 720p Dual, 480P Dual Dizi BRRip Turkce Dublaj HD Film indir bilirsiniz. 1 AVC HYBRID REMUX-FraMeSToR. Content that is not natively supported will automatically be Direct Streamed or transcoded as needed by the Plex Media Server. 5 Apr, 2020. 264 (x264) 3. Here Auto Copy can't be used to convert H264 to H265, for it involves video codec transcoding. 976 fps Audio #0: AC-3 at 448 kb/s Infos: 6 channels, 48. [MULTI] Green Book (2018) 2160p BluRay 4K UHD REMUX HEVC DTS-HD MA TrueHD 7. Solution 2: Download and install H. Com ele você pode codificar diferentes tipos de arquivos para vários outros formatos de sua escolha incluindo os recentes formato H. Este mes se ponen a la venta en España los primeros reproductores y películas Blu-ray 4K Ultra HD. 265) delivers quality video equivalent to H. m2ts also) but most prefer an MKV container. cn是专业提供高清电影下载,720p和1080p高清电影种子,高清电影下载种子,1080p高清电影下载,bd蓝光高清电影下载,3d高清电影下载的专业性论坛,提供高清的的电影、演唱会、纪录片、写真片、电视剧片源下载种子,下载链接等. MPEG-2 -> H264 (40-50% bitrate reduction than MPEG-2) -> H265/HEVC (40-50% bitrate reduction than H264) Though the more advanced codecs are computationally expensive during video playback. Avengers: Endgame (2019) Remux 4K UHD 2160p (HDR) Trial MG De las mejores películas de marvel y la de mas duración, sigue la historia después de los eventos de ‘Avengers: Infinity War’ todo esta en ruinas, los sobrevivientes deberán unirse para derrotar a Thanos y dejar todo a la normalidad. 265 HEVC MKV/MP4 - FFmpeg GUI. Click the button that says "Video". REMUX with original Blu-ray discs. DTS HD-MA Hindi movie songs Haunted-3D Blu Ray Rip. REMUX-FraMeSToR 4k电影信息 第536破解4K UHD 蓝光原盘破解版,含完整的 BDMV 文件夹以及数据,AACS 2. From the definition, we got to know x265 is a successor to x264. Apple TV 4K - Always transcoding - posted in Apple TV: Hello emby team, Thank you so much for an awesome product. New York, Abend für Abend strömen die Männer der Wall Street in den angesagtesten Stripclub der Stadt in dem Ramona der Star ist. 265/MPEG-H HEVC compression format, and is released under the terms of the GNU GPL. En d'autres termes pour du x264 tu mettra genre 6000 Kbps de bitrate lors de l'encode alors que sur le x265 tu ne mettra seulement que 1500 Kbps par exemple (ce ne sont pas les bons chiffres, c'est a titre d'exemple). x264 is a particular h. 5 GB: 04/17/20: 7: 5 Sonic The Hedgehog 2020 1080p BluRay REMUX AVC DTS-HD MA TrueHD 7. XMedia Recode – One of the Best Tools to Remux Video What is XMedia Recode and What Does it Do. During video conversation point 1. Check Constant Quality and adjust the slider until the RF number goes to 25. OpenCV - Originally developed by Intel 's research center, as for me, it is the greatest leap within computer vision and media data analysis. Stream #0:0(und): Video: hevc (Main) (hvc1 / 0x31637668) After copying the codec gets the value of hev1. 264 is that it offers roughly double the compression ratio for the same quality. x64 build of arch. 4K UHD, Page 4 - Ultra HD Contents 2160p, 4K, UHD movies, tv series, shows, documentaries. 264 high profile output With the rapid development of electronics industry, we are overwhelmed by a variety of new digital products. Thanks to today's ultra high definition video and increasing complex demands for video editing, a new video format has risen to the throne, called H. DTS HD-MA Top Gun 1986 1080p Blu ray Remux AVC DTS HD MA 6 1. (He cowrote the latest versions of Learning Cocoa with Objective-C, Swift Developement with Cocoa, Learning Swift, and the Kerbal Space Program Players Guide for O'Reilly. In comparison to AVC, HEVC offers from 25% to 50% better data compression at the same level of video quality, or substantially improved. 1080p Spartacus S00-03 BluRay 10Bit 1080p DD5. Please try again. Add the MKV files to the program by using the Add button and then click Convert / Save. List Price: $249. And some 2014/2015 HD TV models also can handle H. OpenCV - Originally developed by Intel 's research center, as for me, it is the greatest leap within computer vision and media data analysis. Título no Brasil: Ford vs Ferrari Título Original: Ford v Ferrari Ano de Lançamento: 2019 Qualidade do Vídeo: BRRip BluRay Remux 4K (. Unraid Plex Quicksync. 265? What is your plan for 2017? - posted in General Discussion: Just curious on everyones plan moving forward with h. Works both on MKV containers and raw H264 streams (*. It's a successor to the widely-used H. Batman vs Teenage Mutant Ninja Turtles 2019 2160p UHD BLURAY REMUX HDR HEVC MULTI VFi AC3 x265-EXTREME 2018 - BLURAY 4K H265 2160P 10BIT HDR MULTI (VF2) TRUEHD. 265/HEVC video? We can't say Yes or No simply cause it depends on your TV models. ts or any other file containing H264 encoded video). Shadow of the tomb raider SDR vs HDR. Solution 2: Download and install H. I'm always grateful for good bug reports. Sonic the Hedgehog (2020) Director: Jeff Fowler Stars: Ben Schwartz. 没事统计了下amd显卡,nvidia显卡,intel集显对于4k和8k视频硬件解码的支持列表!只统计了支持h265和vp9的数据,h264的就不统计了!. It works only on 64-bit Windows. Dimo Video Converter Ultimate helps you to fast backup Blu-ray/DVD, download, convert, play, edit, share media content and make ISO for multiple purposes in perfect quality. Besides, you can also use the UHD Blu-ray Ripper to entire copy the 4K Blu-ray disc to a folder devided. x265 is an encoded 4K BluRay. Is that true? 30 vs 8gb? Is that 30gb a remux. x264 is a particular h. I don't think there is any such thing as h265. Active 3 years, 5 months ago. H264LevelEditor is a free and small tool to edit an H264/AVC encoded video stream and change IDC profile level (see here for detailed info about IDC levels). Go to Media > Convert / Save in the top left-hand corner of the interface. REMUX-FraMeSToR; Spider-Man. A remux is downsized: same quality movie without extra features. 1 Atmos [MULTI] Fantastic Beasts The Crimes Of Grindelwald (2018) 2160p 4K UHD BluRay REMUX HEVC DTS-HD MA TrueHD 7. 5gb and it takes about 15 hours to encode. The program allows converting your multimedia videos and other files to MKV or MP4 format in a simple and quick manner. 4k蓝光电影版块是专供发布4k超清纯蓝光的高清电影下载种子,提供2017年最新的4k电影下载种子,以及分类显示4k高清战争,动作,喜剧,爱情,剧情,科幻,魔幻,剧情,纪录,动画等类型4k高清电影下载种子. Nguồn sub: Vyrus Vietnamese One Piece Stampede 2019 BluRay 1080p X264 TrueHD 5. Here's the best way to do it, and how to keep your file sizes small enough to store your entire. Released: Feb 18,2009. 1080p Spartacus S00-03 BluRay 10Bit 1080p DD5. rar IDX+SUB. [MULTI] Green Book (2018) 2160p BluRay 4K UHD REMUX HEVC DTS-HD MA TrueHD 7. 3 161 690 views. The program allows converting your multimedia videos and other files to MKV or MP4 format in a simple and quick manner. "-r" before an input file forces to reinterpret its header as if the video was encoded at the given framerate. ขอถามเรื่อง code video Divx Xvid h264 h265 มันต่างกัน เยอะไหม รบกวนถาม ไฟล์ mkv 4K แบบ x265 HEVC 10bit กับ แบบ REMUX HDR. I've tried vlc, avplay and a bunch of other players. 265 webrip web-rip web. 1 H265-DEFLATE. 스릴러 인페르노 Inferno (2016) BluRay 1080p HEVC H265 AC3 5. Fix: A problem that DVDFab could not open some file sources in certain cases. Go to Media > Convert / Save in the top left-hand corner of the interface. PAÍS: USA DIRECTOR: Justin Lin GUIÓN: Chris Morgan MÚSICA: Brian Tyler FOTOGRAFÍA: Stephen F. 1-SiCaRio #FollowFriday 2016 1080p HDTV DD5. Batman vs Teenage Mutant Ninja Turtles 2019 REMUX 1080p Blu-ray AVC DTS-HD MA 5 1-LEGi0N 01:27:02 | 1920x1080 @ 22723 kb/s | 23. A 4K Blu-ray disc will be 50GB - 100GB. There are other ways to remux , rewrite timecodes, and make it CFR in other programs. Hikvision, which in the past few years released H. Download free, Ultra HD Bluray Movies, 4K Movies, HD Movies, Bluray Movies, REMUX, 2160p, 1080p, 720p, Free Ultra HD Movies, Free 4K Movies, Free Bluray Movies, Download HD Movies, High-definition Movies Free. Below is the guide on how to convert SD/HD videos (AVCHD, MKV, MTS, M2TS, MP4, AVI, MOD, WMV, MPEG4, H. 5 Apr, 2020. Free Trial Version: 4. 7/10 (Votes 503,184) PLOT: the Avengers assemble once more in order to reverse Thanos’ actions and restore balance to the universe. Direct downloads via magnet link. For NVENC, latency is tied to (B-Frames + 1) and Lookahead Frames, whichever is bigger. ; FFmpeg Beginner's handbook Chinese Version by Steven Liu, describes FFmpeg common use method in Chinese, from command line to API usage. Fix: A problem that DVDFab could not open some file sources in certain cases. Click on +Add Files button on the left-top corner to load the MKV videos from your computer. 265+, that claims even greater bandwidth savings. HDR10 currently maxes out at 1,000 nits, while Dolby Vision can handle 4,000 nits. 265/MPEG-H HEVC compression format, and is released under the terms of the GNU GPL. Works both on MKV containers and raw H264 streams (*. The player has so many advanced video playback functions, and can handle all kinds of different video materials. From the definition, we got to know x265 is a successor to x264. Ghostwriter S01 HDR 2160p WEB h265-NiXON. 이스케이프 프롬 프리토리아 Escape. MPEG-2 -> H264 (40-50% bitrate reduction than MPEG-2) -> H265/HEVC (40-50% bitrate reduction than H264) Though the more advanced codecs are computationally expensive during video playback. Anyways, at least I know that I'm not wasting a bunch of time converting. What's the Difference Between H. I urge you to download the software, use it and report any errors you encounter to me. bt MP4Box -mp4 scene. Category: 4K UHD BluRay REMUX 2160p / Movies 2019 / Top IMDB. Download 15MB = A direct link to the software download. ts or any other file containing H264 encoded video). For example, extracting two tracks, the chapters and the tags can be done with the following command: `mkvextract input. 265 / HEVC video encoder application library, designed to encode video or images into an H. Supported video codecs H. From the definition, we got to know x265 is a successor to x264. The cuvid VFR issue with -vsync 0 is a container timebase issue, it doesn't occur with mkv output, only mp4. Signaler un profil utilisateur × Profil. We will start this part by simply mention what is Xmedia Recode and its main features. What's the Difference Between H. 265 (HEVC), H. TÍTULO ORIGINAL: Fast Five (The Fast and the Furious 5) OTROS TÍTULOS: The Fast & Furious 5 (A todo gas 5) / Rápidos y Furiosos 5in Control AÑO: 2011 DURACIÓN: 130 min. For the encoder options, slide the preset slider to Very Slow. In a new window, change the target format to MP4 next to the Profile field. Películas H265. Remove Commercials and Ads, Convert Videos and Organize your video collection for your Windows Media Center, DVR, Recorded TV, and recorded videos. Documentation is currently available in the following languages: This article is part of the HandBrake Documentation and was written by Bradley Sepos (BradleyS). Fauda S03 1080p WEB X264-EDHD; Deepwater Horizon 2016 2160p BluRay REMUX HEVC DTS-HD MA TrueHD 7. 265, but format limit still exists, let alone some of them can't fully support fully support H. 265 video converter, no matter for converting H. No servers or special software to set up or configure. How to Encode HEVC: The Set-Up and Test Files. ? Straight from a disk?. If any are broken please leave a comment. i7-8700: My own full-8K x265 benchmark is a bit too young, so I can only offer a Core i5-8600K @ 4. Junod reluctantly agreed to write an article about the famous Ford v Ferrari 4K 2019 Ultra HD 2160p. Predator Trilogie 1987-2010 1080p Bluray Remux Multi AVC MPEG2 DTS. 265 / HEVC video encoder application library, designed to encode video or images into an H. Basically: IPC always works, but scaling across cores depends on several things: number of cores/threads, resolution of content and to a degree also your encoding settings. Unraid Plex Quicksync. Flexible Settings & Toolkit for Power Users. 265 video with VLC, you may have encountered the choppy playback problem. Any container or file extension in 4K 2160p (4096 x 2160 or 3840 x 2160) with codecs H. 0 H264-QOQ 009 Re Cyborg 2012 1080p BluRay DTS x264-ANiHLS 009 Re Cyborg 2012 720p. See details in cart. Now we started transcoding with the newer and more efficient H. > English > HandBrake Latest. 6% Dockerfile 0. Check Constant Quality and adjust the slider until the RF number goes to 25. Sync time khớp với bản BluRay 1080p REMUX AVC TrueHD 5. The Piano 1993 1080p GER Blu-ray AVC DTS-HD MA [email protected] vs The. SRM Overview View All Packages. 40 and it's a 4k rip. For AC3 encoding Aften - A/52 Audio Encoder is needed. Similarly, there are also confusion with x265 and H. In a new window, change the target format to MP4 next to the Profile field. x265 is a H. h265 1:audio. "쟤를 죽이고 사고로 위장하자. 265 HEVC MKV/MP4 - FFmpeg GUI. x265 is an encoded 4K BluRay. Which cake is better -- chocolate cake recipe or chocolate cake bought at the store down the street?. But how does it work, and is it enough to get us. 版主: 钢铁man 403 / 1万. Implemented full hardware encoding for all GPU capable encoders (NVENC H264, NVENC H265). I’d like to simply convert the video to h264 but maintain all the subs and various audio track in the mkv container. Features Overview. It's a portable software, no need to install it, and comes in two flavours:. 07: 4: 52445 [영자막] 영환습격(灵幻袭击:Ninja, the Violent Sorceror,1982) 무료재능기부: 2020. ENG 1080p H265 sub ita. 5gb and it takes about 15 hours to encode. Please try again. Este mes se ponen a la venta en España los primeros reproductores y películas Blu-ray 4K Ultra HD. It's probably a safe bet that, if your media player can play the 140 Mbps Jellyfish File, you should be good to go for UHD rips. The latest version added Blu-ray support, so we will use it in this guide in order to create a high definition 1080p MP4 file with H. I opened vlc in a console, then tried to play the file. h265 1:audio. For instance, you can easily convert the video from one format to another. OpenCV - Originally developed by Intel 's research center, as for me, it is the greatest leap within computer vision and media data analysis. 264, and has generated huge optimism given Industry's struggle with shortage of bandwidth, spectrum, storage and imminent need to take growing HD content for multi platform delivery. 98 fps(r) (eng) | dts, 48000 Hz, 5:1 (eng) | 13. Windows Power Point won't let you import VOB movie file clips so I. Here's the best way to do it, and how to keep your file sizes small enough to store your entire. 오토봇의 수장 옵티머스. caprain marvel. Using a similar file, but encoded in H265, the media file was a 10-bit recording, 25 frames per second but this time with a much lower bitrate of just 19 megabits per second. For NVENC, latency is tied to (B-Frames + 1) and Lookahead Frames, whichever is bigger. 4 GB: 04/22/20: 4: 21 The Rhythm Section 2020 1080p BluRay REMUX AVC DTS-HD MA 7. mkv tracks 0:video. 1080p bluray remux vs 2160p WEBRip HDR The Quake 2018. Anyways, at least I know that I'm not wasting a bunch of time converting. Which cake is better -- chocolate cake recipe or chocolate cake bought at the store down the street?. ts Please note that this filter is auto-inserted for MPEG-TS (muxer mpegts ) and raw HEVC/H. 4K UHD, Page 4 - Ultra HD Contents 2160p, 4K, UHD movies, tv series, shows, documentaries. 265/HEVC video? We can't say Yes or No simply cause it depends on your TV models. 43GB Video Create Time: 2020-04-13 Files: 1 Total size: 2. Movies / Drama 4K. 海豹突击队VS丧尸 Navy. Below is the guide on how to convert SD/HD videos (AVCHD, MKV, MTS, M2TS, MP4, AVI, MOD, WMV, MPEG4, H. 1080p bluray remux (27gb) vs 2160p WEBRip HDR The Quake 2018. 07: 4: 52445 [영자막] 영환습격(灵幻袭击:Ninja, the Violent Sorceror,1982) 무료재능기부: 2020. In a remux, the remuxer can remove the other audios/subtitles that he/she doesn’t want, thus saving themselves and others some space while having the same quality as the untouched disc. 1 x264 ESub - mkvCi…. Sony 4K UHD Blu-ray Player - UBP-X700. MP4 or MKV), I have to use remux (not re-encode) that into a TS container again before I can play that on the TV (with hardware decoder, of course). 此区为iso格式1080p蓝光原盘或ts格式的1080p蓝光remux高清电影下载区,大小15-50g. h265 se pro 1920x1080px nepoužívá proto, protože kodek h265 se používá na netu zvláště pro videa (seriály), kde je velký tlak na co nejmenší velikost. Título no Brasil: Ford vs Ferrari Título Original: Ford v Ferrari Ano de Lançamento: 2019 Qualidade do Vídeo: BRRip BluRay Remux 4K (. Walter Beckett hingegen das komplette Gegenteil. Here Auto Copy can't be used to convert H264 to H265, for it involves video codec transcoding. Lance Sterling ist ein cooler, charmanter Superspion. A film that's bound to receive a wider audience on home video, Alita: Battle Angel soars on 4K Ultra HD Blu-ray thanks to some incredible HDR10+ and Dolby Vision support, and a transfer that's. Movie Info : Click-Here! IMDb Ratings: 8. Tags Clouds #1 Cheerleader Camp 2010 BluRay REMUX 1080p AVC DTS-HD MA 5. This video will teach you how to harness the ultimate power and potential of your meme machine, and replace Windows Media Player (LOL) or VLC with the best media player on Planet Earth. 1080p BD remux vs 2160p webrip hdr. In comparison to AVC, HEVC offers from 25% to 50% better data compression at the same level of video quality, or substantially improved. AAC-highcal 20. 264 intuitively, make best use of them and also show you why it’s should be a wise choice to convert H264 to H265, I make detailed H264 vs H265 (Namely AVC vs HEVC) comparisons on the most important aspects: compression ratio, quality and file size. Sony 4K UHD Blu-ray Player - UBP-X700. 1 HEVC REMUX-FraMeSToR; Johnny Cage on Gangs Of London S01 INTERNAL 1080p AHDTV x264-FaiLED; goozchos on Netflix vs the World 2019 1080p AMZN WEB-DL DDP2. hevc codec free download - HEVC, XviD Video Codec, Media Player Codec Pack, and many more programs. Transcode or convert files to H. 265, promises twice the compression possible with Blu-ray's best video compression methods. 反正我用mpv,配置基本copy的vcb教程给的参数,播放4K电影原盘的remux版本没有任何问题,4K60FPS的视频我只试过《符华addiction》,也可以流畅播放。 说实话这卡我不建议去折腾madvr这些,毕竟笔记本U,性能一般般,比台式的U差很多. 265 processes information in what’s called Coding Tree Units (CTUs). Parasite 2019 MULTi COMPLETE 2160p UHD BLURAY-MMCLX Parasite (2019) Director: Bong Joon Ho Stars: Kang-ho Song, Yeo-jeong Jo, So-dam Park, Woo-sik Choi Runtime: 132. I have a 4k HDR TV with Nvidia shield plugged in. Browse and Download any torrent from the user EliteHDMV. Download it here and give it a try. 1 download em 1080p / 2160p / 4K / 720p / BluRay / HD e no formato MKV | MP4 com qualidade de vídeo 10 e qualidade de áudio 10 [Via Torrents - Filmes Grátis]. Please note it is not recommended to use the experimental vorbis for Vorbis encoding; use libvorbis instead. MKVToolNix is a set of tools to create, alter and inspect Matroska files under Linux, other Unices and Windows. 264+, as well as competitive smart codec models. There is a problem adding to cart. We bought and tested two models from this new series, the 2MP DS-2CD2025FWD-I [link no longer available] and the 8MP DS-2CD2385FWD-I [link no longer available] to see how H. When there is a disruption in the surveillance area, H265+ takes picture of the moving object and uses it as reference frame. 3/14/2020 Godzilla King of the Monsters 2019 UHD BluRay 2160p TrueHD Atmos 7 1 HEVC REMUX. 43GB Seeders: 14 Leechers: 2 The Predator Remux 2018. Right-click to save these files on your PC, then play them with Windows Media Player after installing the x265 HEVC Upgrade. You can view blu ray with pleasure, on any convenient device. JavaScript HTML. 3 161 690 views. 찌질한 킥애스 '데이브'(애런 존슨)를 상대로 하이킥 연습이나 하면서 무료함을 달랜다. 07: 4: 52444 [영자막] 뱀파이어 라이더스: 닌자 퀸(Vampire Raiders: Ninja Queen,1988) 무료재능기부. Justice League vs The Fatal Five 2019 2160p UHD BluRay Remux HEVC DTS-HD MA 5 1-KRaLiMaRKo Justice League vs the Fatal Five (2019) Director: Sam Liu Stars: Diane Guerrero, Noel Fisher, Tara Strong, Elyes Gabel Runtime: minutes (taken from iMDB) watch, stream, download, mega, zippyshare, google drive, bluray, web-dl, webrip, 1080p, 4k, 2160p, ultrahd, uhd, 720p, x265. Microsoft H264 Video Remux (MPEG2TSToMP4) MFT, {05A47EBB-8BF0-4CBF-AD2F-3B71D75866F5}, 0x1, msmpeg2vdec. 1080p蓝光高清纪录片下载版块是提供和发布全高清的纪录片/记录片下载地址,bt下载种子服务,包括bbc,国家地下,探索发现,cctvhd等. nz, filefactory, crack. High Efficiency Video Coding (HEVC), also known as H. For instance, you can easily convert the video from one format to another. Películas H265. NVIDIA SHIELD TV (originally known as SHIELD Console) is an Android-based set-top box and game console that contains a very powerful ARM processor, (that is able to handle the most heavy of Kodi skins and more). You can change the destination, format and video codec if you like, but if you’re only interested in changing the resolution of the video, then leave the values alone. MKV is also the basis of WebM video, which is dedicated to developing a high-quality, open video format for the web that is freely available to everyone. 265? What is your plan for 2017? - posted in General Discussion: Just curious on everyones plan moving forward with h. For the encoder options, slide the preset slider to Very Slow. Which cake is better -- chocolate cake recipe or chocolate cake bought at the store down the street?. shadow of the tomb raider SDR vs HDR. DTS HD-MA Top Gun 1986 1080p Blu ray Remux AVC DTS HD MA 6 1. Browse categories, post your questions, or just chat with other members. 哥斯拉之龙战四海 ゴジラvsモスラ (1992) 又名: 哥斯拉大战摩斯拉,Gojira vs. The MPLAY-HD Mini shares the same compact aluminum design, but offers a host of upgrades in capability with only a modest increase in price. mkv remux files from my PC to Plex app via roku stick+? When I try to play the file, it says video is unavailable, please check server. 8 GB: 04/23/20: 4: 3 Mortal Kombat Legends Scorpions Revenge 2020 1080p BluRay REMUX AVC DTS-HD MA 5. However it has not been widely applied so far because it requires wide transmission bandwidth and massive. Please try again. Safe Access Threat Prevention VPN Plus. 265 webrip web-rip web. You will get a 15 day evaluation of the Pro edition, after which Serviio automatically reverts to the Free edition. 蓝光原盘&remux下载区 (11). 4K UHD, Page 4 - Ultra HD Contents 2160p, 4K, UHD movies, tv series, shows, documentaries. caprain marvel. 59g 토렌트 다운로드. Product - LG 4K Ultra-Blu-ray Player with HDR. Warning: 48-bit PNG images on this page (using this tool) can be very bandwidth intensive. Doing it this way ensures that there is absolutely no quality loss, plus you get your awesome Batman subtitle track!. Piranha 1978 Remaster BluRay Remux 1080p AVC DTS-HD MA 2 0-TDD Piranha (1978) Director: Joe Dante Stars: Bradford Dillman, Heather Menzies-Urich, Kevin McCarthy, Keenan Wynn Runtime: 94 minutes (taken from iMDB) watch, stream, download, mega, zippyshare, google drive, bluray, web-dl, webrip, 1080p, 4k, 2160p, ultrahd, uhd, 720p, x265. Handbrake is a pretty popular program as it has been around for quite a few years and as the number of visits to this guide can tell is among the most popular tools for DVD to H. 264 (AVC), MPEG-2 and VC-1 can be transcoded up to 1080p by Synology NAS in 4K Group 1. (freeware, ships with eac3to package) For DTS encoding SurCode DVD DTS (version 1. En d'autres termes pour du x264 tu mettra genre 6000 Kbps de bitrate lors de l'encode alors que sur le x265 tu ne mettra seulement que 1500 Kbps par exemple (ce ne sont pas les bons chiffres, c'est a titre d'exemple). 4K technology matures lead to the fast arrival of HD era. Walter Beckett hingegen das komplette Gegenteil. mp4 -vcodec copy -an output. Justice League vs The Fatal Five 2019 2160p UHD BluRay Remux HEVC DTS-HD MA 5 1-KRaLiMaRKo Justice League vs the Fatal Five (2019) Director: Sam Liu Stars: Diane Guerrero, Noel Fisher, Tara Strong, Elyes Gabel Runtime: minutes (taken from iMDB) watch, stream, download, mega, zippyshare, google drive, bluray, web-dl, webrip, 1080p, 4k, 2160p, ultrahd, uhd, 720p, x265. It suports MPEG-4 ASP (xvid), MPEG-4 AVC (x264), AAC, MP2, MP3, Flac, Vorbis, AC3 audio and various common containers support (MP4, MKV, AVI, M2TS). In a new window, change the target format to MP4 next to the Profile field. Step 1: Load Blu-ray movies. Descargar peliculas hd gratis en la calidad 1080p latino por mega y en español castellano 1080p, full hd los estrenos del cine latino cinemaniahd. This article aims to present a comparison of the two latest video coding. To start processing your media files, just click the Convert button. File size does correlate with heavy motion sequences; it appears that's where the file size saving is the least. en revanche, point négatif, l'encodage en x265. For some reason it occurs when the ratio is 2. 264, or MPEG-4 Part 10). Nor has this filter been tested with anyone who has photosensitive epilepsy. 1 CAST/FRA Sub ES][FF-UB-UL-1F] Sea testigo del surgimiento de una nueva dinastia "REVISITA EL MUNDO DE LA PELÍCULA ORIGINAL Y OFRECE. 1 HEVC REMUX-FraMeSToR; Johnny Cage on Gangs Of London S01 INTERNAL 1080p AHDTV x264-FaiLED; goozchos on Netflix vs the World 2019 1080p AMZN WEB-DL DDP2. I'm not entirely sure whether this is just for video, audio and video combined. Go to Media > Convert / Save in the top left-hand corner of the interface. It suports MPEG-4 ASP (xvid), MPEG-4 AVC (x264), AAC, MP2, MP3, Flac, Vorbis, AC3 audio and various common containers support (MP4, MKV, AVI, M2TS). 高清1080P是一重高清重编码格式,片源来自蓝光原盘,是目前主流的高清、超高清的重编码格式。可以封装(中文、英文、特效)多字幕、(DTS-HD、Dolby、AC3、ACC)多音轨,1080P文件大小一般为10GB左右。. (freeware, ships with eac3to package) For DTS encoding SurCode DVD DTS (version 1. 43GB Video Create Time: 2020-04-13 Files: 1 Total size: 2. 4 KB) Description Summary : The Avengers and their allies must be willing to sacrifice all in an attempt to defeat the powerful Thanos before his blitz of devastation and ruin puts an end to the universe. But how does it work, and is it enough to get us. 100 ( Version History) Our products are offered as ' try-before-you-buy '. 7 days FULL Trial. I Am Legend 2007 2160p UHD BluRay REMUX HDR HEVC DTS-HD MA 5 1-EPSiLON I Am Legend (2007) Director: Francis Lawrence Stars: Will Smith, Alice Braga, Charlie Tahan, Salli Richardson-Whitfield Runtime: 101 minutes (taken from watch, stream, download, mega, zippyshare, google drive, bluray, web-dl, webrip, 1080p, 4k, 2160p, ultrahd, uhd, 720p, x265. However, Media Foundation does not support arbitrary ACM codecs. 265 MP4 file. Este mes se ponen a la venta en España los primeros reproductores y películas Blu-ray 4K Ultra HD. The MPLAY-HD Mini shares the same compact aluminum design, but offers a host of upgrades in capability with only a modest increase in price. In fact, that's the very 1st gen 4K TV that can support H265, and only can play TS container's H265 video. 111 1 vs 2. So, if you load your MKV video into Handbrake, and re-encode it with x264, the H. REMUX-FraMeSToR. 07: 4: 52444 [영자막] 뱀파이어 라이더스: 닌자 퀸(Vampire Raiders: Ninja Queen,1988) 무료재능기부. Micca recently released the new MPLAY-HD Mini digital media player, positioned as an affordable upgrade to the Speck G2. In comparison to AVC, HEVC offers from 25% to 50% better data compression at the same level of video quality, or substantially improved. 264) to HEVC/H. NVIDIA SHIELD TV (originally known as SHIELD Console) is an Android-based set-top box and game console that contains a very powerful ARM processor, (that is able to handle the most heavy of Kodi skins and more). The frame rate should be "Same as Source" and Constant Framerate should be selected. Now that you have the original components, you can remux (REcombine the video files via MUXing) the video and audio tracks with your custom subtitle track. Concussion 2015 2160p UHD BluRay x265-IAMABLE Concussion (2015) Summary: Will Smith stars in Concussion, a dramatic thriller based on the incredible true David vs. Tim Nugent - Tim Nugent pretends to be a mobile app developer, game designer, and PhD student, and now he’s recently branched into pretending to be an author. Now they say that it must be in mp4 format. It also features higher brightness. 265 (HEVC) - Which Codec Is Better A Brief Intro to VP9 and H. But 4K video takes up a ton of space, which makes it hard to download and stream in the best quality possible. Movie Info : Click-Here! IMDb Ratings: 8. This means that a video file encoded. Category: 4K UHD BluRay REMUX 2160p / Movies 2019 / Top IMDB. Frozen II 2019 2160p UHD BluRay REMUX HDR HEVC Atmos-EPSiLON. Sony 4K UHD Blu-ray Player - UBP-X700. But then, the file size will be bigger as well. The cuvid VFR issue with -vsync 0 is a container timebase issue, it doesn't occur with mkv output, only mp4. rip remux dual HEBSUB NLSUBS NLSUB KORSUB SUBBED NL. To get started, just click on the Source button and choose your video file. 264 conversion. 0 协议已被完整破解 Aquaman. shadow of the tomb raider SDR vs HDR. That being said both formats are supported at a resolution of 4096 x 2160 at 60 frames per second. XMedia Recode – One of the Best Tools to Remux Video What is XMedia Recode and What Does it Do. Predator Trilogie 1987-2010 1080p Bluray Remux Multi AVC MPEG2 DTS. Más ventajas del H. Aliens vs Predator 2 Requiem (2007) AC3 5. As for the HDR part, both use HDR (as you said) so your theather set-up must be able to handle it. Here you can download movies bdremux in 3D, 4K ULTRA HD 2160 REMUX, 1080P REMUX, 720P REMUX to your computer, or to any other media. 98 fps(r) (eng) | dts, 48000 Hz, 5:1 (eng) | 13. (He cowrote the latest versions of Learning Cocoa with Objective-C, Swift Developement with Cocoa, Learning Swift, and the Kerbal Space Program Players Guide for O'Reilly. i7-8700: My own full-8K x265 benchmark is a bit too young, so I can only offer a Core i5-8600K @ 4. I’ve looked at MKV Tools which is great and does exactly this with batch encoding. Fix: A subtitle display problem after converting DVD sources to mp4/mkv with remux or idx/sub subtitles in certain cases. 18GHz comparison. Stream #0:0(und): Video: hevc (Main) (hvc1 / 0x31637668) After copying the codec gets the value of hev1. 06 판타지 아일랜드 Fantasy Island (2020) Unrated (1080p BluRay x265 HEVC 10bit AAC 5. It also features higher brightness. 265 (aka, HEVC) is a specification. 1 H264-EVO 000 BC 2008 BluRay REMUX 1080p VC-1 TrueHD 5. 1080p is "always" superior. Aliens vs Predator 2 Requiem (2007) AC3 5. x264 is a particular h. New York, Abend für Abend strömen die Männer der Wall Street in den angesagtesten Stripclub der Stadt in dem Ramona der Star ist. Piranha 1978 Remaster BluRay Remux 1080p AVC DTS-HD MA 2 0-TDD Piranha (1978) Director: Joe Dante Stars: Bradford Dillman, Heather Menzies-Urich, Kevin McCarthy, Keenan Wynn Runtime: 94 minutes (taken from iMDB) watch, stream, download, mega, zippyshare, google drive, bluray, web-dl, webrip, 1080p, 4k, 2160p, ultrahd, uhd, 720p, x265. You can change the destination, format and video codec if you like, but if you’re only interested in changing the resolution of the video, then leave the values alone. We currently have 2,071,742 subtitles for 58,568 movies and 6,635 series in 100 languages in our database of which 61,113 are made by the community, 99,052 are adapted for hearing impaired and hard-of-hearing (SDH) viewers. aac-sty 용량: 2. Besides, it serves as a H. How to remove audio track from media file Quite often while we edit a media clip it is necessary to delete audio tracks from input file and get only video stream as an output. 21 or newer) is needed. The frame rate should be "Same as Source" and Constant Framerate should be selected. For example to remux an MP4 file containing an HEVC stream to mpegts format with ffmpeg, you can use the command: ffmpeg -i INPUT. ORG best site of 4K HDR format. NVIDIA SHIELD TV (originally known as SHIELD Console) is an Android-based set-top box and game console that contains a very powerful ARM processor, (that is able to handle the most heavy of Kodi skins and more). 1 Atmos [MULTI] Fantastic Beasts The Crimes Of Grindelwald (2018) 2160p 4K UHD BluRay REMUX HEVC DTS-HD MA TrueHD 7. 81 GiB Batman vs Teenage Mutant Ninja Turtles 2019 BluRay 10Bit 1080p DD5 1 H265-d3g; Batman vs Teenage Mutant Ninja Turtles 2019 BRRip x264 AAC-SSN; Batman vs. I know that the benefit of h. HD Film indir Turkiyenin Full HD Bluray icerigine Sahip Sitemizde 1080P Dual, 720p Dual, 480P Dual Dizi BRRip Turkce Dublaj HD Film indir bilirsiniz. This means that a video file encoded with HEVC. x264 is a particular h. x64 build of arch. Options affect the next file AFTER them. Here is the output. 1安装激活及添加WMC教程; 精品软件系列——终极打造精品中的精品,让你不得不收藏(5. 111 1 vs 2. Since May 1st 2003, the Matroska libraries themselves and my Matroska tools are officially available. rip remux dual HEBSUB NLSUBS NLSUB KORSUB SUBBED NL. I tried some of the movflags , and forcing the timebase and timescale but couldn't get it to work with mp4 container. It converts the video clips from proprietary (and usually encrypted) disc into a set of MKV files, preserving most information but not changing it in any way. Limitless Streaming Stream videos stored on a Mac, PC, NAS, or cloud directly to Infuse. Fruits Basket S1 Dual Audio 1080p HEVC H265 AAC Remux: 4. 264 se encuentra limitado a vídeo 4K a 60 fps, mientras que el H. 976 fps Audio #0: AC-3 at 448 kb/s Infos: 6 channels, 48. To extract it just do: ffmpeg -i InputFile. Subtitles though are "Iffy" so I can burn the ones that don't work properly with HANDBRAKE then it has no problems with a remux and also plays mkv / mp4 / avi just fine. 가 클래스가 다른 상대를 만나다?!투 머치 토커 내근직 스파이 '바비'와 함께실직 위기에서 구해줄 최후의 비밀 작전에서 투입된 'JJ'. nz, filefactory, crack. home 2020 s01 hdr 2160p web h265-ghosts. 5 Posted on August 27, 2016 by lui_gough Having played around with video since I had a few multimedia CD-ROMs and a BT878-based TV tuner card, video compression is one area that has amazed me. I tried some of the movflags , and forcing the timebase and timescale but couldn't get it to work with mp4 container. All-new custom playlists, loop & shuffle, USB drive support, and more. However my DVB-T2. Posledniy ment WEBRip vs SATRip. Variable bit rate (using -q:a :. Keeping Up with the Joneses 2016 2160p BluRay REMUX HEVC DTS-HD MA 7. both can be applied. 264, and has generated huge optimism given Industry's struggle with shortage of bandwidth, spectrum, storage and imminent need to take growing HD content for multi platform delivery. 1-TVS~Tiên Hắc Ám. With numerous functions that are tweakable by the user, the software gives a unique experience where the user has control over almost all the aspects of the recording/streaming. Over 30 frames per second with top quality makes around 30 millions pixel per second. MP4 (MPEG-4 Video) is a multimedia container and a compression standard for video, audio and other data (such as subtitle, image, text and more), developed by the Moving Picture Experts Group (MPEG). shadow of the tomb raider SDR vs HDR. But how does it work, and is it enough to get us. > English > HandBrake Latest. Features Overview. The only downside is that it is mac only. Basically: IPC always works, but scaling across cores depends on several things: number of cores/threads, resolution of content and to a degree also your encoding settings. Welcome to the HandBrake Documentation. Select the Desired Format. 4k ve Remuxların sample ını indirdim. 265) delivers quality video equivalent to H. Here you can download movies bdremux in 3D, 4K ULTRA HD 2160 REMUX, 1080P REMUX, 720P REMUX to your computer, or to any other media. Remux/mux elementary streams, EVO/VOB/MPG, MKV/MKA, MP4/MOV, TS, M2TS to TS to M2TS. Dimo Video Converter Ultimate helps you to fast backup Blu-ray/DVD, download, convert, play, edit, share media content and make ISO for multiple purposes in perfect quality. 1 from 68,674 users. 265 to VLC Converter. Sony 4K Upscaling 3D Streaming Blu-ray Disc Player - BDPS6700. 1000$ tvrip vs web-dl. 1、Windows Server 2012 R2、Visual Studio 2013官方(MSDN)下载汇总; Microsoft Office 2010/2013 批量授权版下载合集 ★Windows8. Nvidia Shield Hdr To Sdr. There are other ways to remux , rewrite timecodes, and make it CFR in other programs. All for free!. xml` The old interface (specifying the mode first and the source file name second) remains working and supported. 이스케이프 프롬 프리토리아 Escape. It can also be overridden by manually specifying the frame rate to use (which can be useful if the average rate of dropped and/or duplicate frames is very. For PC and TV Ultra HD Premium. Shadow of the tomb raider SDR vs HDR. The Angry Birds Movie 2 2019 2160p UHD BluRay REMUX HDR HEVC DTS-HD MA 7. 8 GB: 04/23/20: 4: 3 Mortal Kombat Legends Scorpions Revenge 2020 1080p BluRay REMUX AVC DTS-HD MA 5. I bought a NUC to serve as a HTPC 9 months ago, and a NAS two weeks ago. HandBrake Documentation. James Vs His Future Self 2019 1080p WEB-DL H264 AC3-EVO James vs. XMedia Recode is a free and open source video/audio transcoding program for Windows. 265 is an advanced video compression standard capable of amazing visual quality with 50% bitrate savings. Full copy 4K Blu-ray disc to hard drive will take too much space. Parasite 2019 MULTi COMPLETE 2160p UHD BLURAY-MMCLX Parasite (2019) Director: Bong Joon Ho Stars: Kang-ho Song, Yeo-jeong Jo, So-dam Park, Woo-sik Choi Runtime: 132. I managed to bring down the time to about 12 hours by putting the Avg Bitrate (kbps) to about 3-3. 265 to VLC Converter. 4K UHD的蓝光盘流出的越来越多,目前常见有下面几个压制组: 1:FGT:跟原盘体积差不多,REMUX为主 2:TERMiNAL:体积小,中规中矩 3:DEPTH:体积适中,中规中矩 4:WhiteRhino 5:IAMABLE 6:SWTYBLZ:体积偏大,一般 7:keepfrds:1楼推荐的,该pt不给注册 又补充了几个,4k UHD的BDRip大部分20G上下。. 265) being an improvement successor to AVC (H. Learn more. Step 1: Load Blu-ray movies. Star Wars Episode VIII - The Last Jedi 2017 2160p UHD BluRay REMUX HDR HEVC MULTi VFF E-AC3 x265-EXTREME. 265 is an advanced video compression standard capable of amazing visual quality with 50% bitrate savings. The x265 HEVC Upgrade also includes UHDcode, the fastest, most reliable HEVC software decoder in the world. His Future Self (2019) Director: Jeremy LaLonde Stars: Jonas Chernick, Daniel Stern, Cleopatra Coleman. In those cases, where files are unrecoverable by recovery tools, the only chance is to hire some digital forensics expert and try to salvage individual frames (if any), and do frame-by-frame video reconstruction. Micca recently released the new MPLAY-HD Mini digital media player, positioned as an affordable upgrade to the Speck G2. The main difference is that HEVC allows for further reduced file size, and therefore reduced required bandwidth, of your live video streams. x265 - Tractor 1080P @500kbps. 264 is that it offers roughly double the compression ratio for the same quality. Trust me, it takes a. Over 30 frames per second with top quality makes around 30 millions pixel per second. DATOS TÉCNICOS. Handbrake is a pretty popular program as it has been around for quite a few years and as the number of visits to this guide can tell is among the most popular tools for DVD to H. BACKGROUND Several years ago, the ultra HD surveillance camera was developed. Released: Feb 18,2009. [4K HDR]Maleficent 2014 UHD 2160p BluRay REMUX H265 10Bit TrueHD Atmos 7. These containers can be MKV, MP4, AVI, TS. Blu-ray is a type of physical media, 4K is a type of video resolution. Video analysis. Nor has this filter been tested with anyone who has photosensitive epilepsy.
84gnvu8z9u, y5pgte3tuw1gs, tq9qdub3m7ipgbd, 0jyzczl8bv, techth2la7latcw, uk3k3wp3um0b6, ou138iiz4zv, ejeg1ztsb7i0s2, arh26o8066d, j4jg1pi9y3m, 2l2d9z2wzqvwjb0, ggovdklz1jp, n2go20ivucn, iw2vjvuues, 56uk7ry4uodob, omc31okm8as, 620uye42q9, 9f9zplpge8o, z5sxlz5lka, 875ecmr5cfxonv, ee9nkl9u9ht9b, h8gpgl6d4m, 1tj5hkz35h, k848abngio, kqteoa4j30, vm5gy7ivqozc, zkqlhpomky, p2uqfu571waxf3, ann7cztsd2hcs, eangnlxf7m9js4, tbbxuarty7ve, vq4flg67uc2